HD-AREA wünscht Euch eine besinnliche Weihnachtszeit ;)

DNS SERVER AENDERNum der staatlichen Zensur zu umgehen. Sollten wir von eurem Provider geseprrt werden, nutzt den TOR BROWSER oder ändert euren DNS SERVER.

Filmwünsche können bei uns im Forum abgegeben werden

Wir Speichern Nicht




 
 
 
Top Releases
Mission.Impossible.Fallout.2...
Black.47.2018.German.DL.AC3....
Black.47.2018.German.DL.AC3....
Ein.Kind.zur.Zeit.2018.Germa...
Bad.Moms.2016.German.DL.1080...
Crazy.Rich.Asians.German.DL....
Crazy.Rich.Asians.German.DL....
The.Nun.German.DL.AC3.Dubbed...
The.Nun.German.DL.AC3.Dubbed...
Alpha.German.DL.AC3.Dubbed.1...

Cinedubs
Night.School.2018.GERMAN.DL....
Night.School.2018.GERMAN.DL....
Gaensehaut.2.Gruseliges.Hall...
Gaensehaut.2.Gruseliges.Hall...
Unknown.User.2.Dark.Web.Germ...
Unknown.User.2.Dark.Web.Germ...
Peppermint.Angel.of.Vengeanc...
Peppermint.Angel.of.Vengeanc...
Venom.German.DL.AC3.Dubbed.1...
Venom.2018.German.AC3D.5.1.D...

Neuerscheinungen 2017-18
I.Still.See.You.Sie.lassen.d...
I.Still.See.You.Sie.lassen.d...
Mara.2018.German.720p.BluRay...
Mara.2018.German.DL.1080p.Bl...
Espen.und.die.Legende.vom.Be...
Espen.und.die.Legende.vom.Be...
Lizzie.Borden.Mord.aus.Verzw...
Lizzie.Borden.Mord.aus.Verzw...
Lizzie.Borden.Mord.aus.Verzw...
Show.Dogs.Agenten.auf.4.Pfot...

XXX
FatManFuck.17.09.28.Savannah...
Kemaco.29.XXX.720p.WEBRip.MP...
LANewGirl.18.11.25.Hanna.Ret...
MatureNL.18.11.08.Alexa.Blun...
LANewGirl.18.11.27.Kinsley.M...
LittleCapriceDreams.18.11.23...
MatureNL.18.11.13.Beau.Diamo...
MatureNL.18.11.16.Cassie.Ell...
KimberLeeLive.18.12.01.Teach...
LivingWithAPornstar.18.12.03...
MatureNL.18.11.06.Allison.An...
KimberLeeLive.18.11.24.Am.I....
MatureNL.18.11.02.Gina.Feroc...
Killergram.18.12.01.Karina.G...
Hitzefrei.18.10.31.Nina.Vega...
Lesbea.18.12.01.Ashely.Ocean...
LittleCapriceDreams.18.12.01...
FatManFuck.17.10.02.Lauren.C...
LesbianX.18.12.01.Sinn.Sage....
HeavyOnHotties.18.11.30.Tayl...

3D
Gans.im.Glueck.3D.2018.MULTi...
The.Art.of.Flight.3D.2011.Ge...
The.End.Of.The.World.3D.2010...
The.First.Avenger.Civil.War....
Die.Unglaublichen.2.2018.3D....
Skyscraper.3D.2018.MULTi.COM...
Ant-Man.And.The.Wasp.3D.2018...
Ant.Man.and.the.Wasp.3D.2018...
Die.Unglaublichen.2.3D.2018....
Die.Unglaublichen.2.2018.3D....
Die.Unglaublichen.2.2018.3D....
Sharknado.6.The.Last.One.3D....
Deep.Kleine.Helden.der.Tiefs...
Deep.3D.2017.MULTI.COMPLETE....
Detective.Dee.und.die.Legend...

Old_Stuff
Akte.X.S04.German.DTS.DL.108...
Akte.X.S03.German.DTS.DL.108...
Dunkirk.1958.COMPLETE.BLURAY...
Das.Wunder.von.Manhattan.199...
The.Amazing.Spiderman.2.Rise...
Rise.of.the.Predator.2014.Ge...
Detective.Dee.und.das.Geheim...
Detective.Dee.Und.Der.Fluch....
Ghost.Rider.Spirit.of.Vengea...
Species.IV.Das.Erwachen.2007...
Species.IV.Das.Erwachen.2007...
Hotel.Transsilvanien.2012.Ge...
The.Dead.2010.German.DL.1080...
The.Dead.2.India.2013.German...
Britney.Spears.Live.The.Femm...

Filme
Venom.2018.German.Dubbed.AC3...
Succession.S01D01-2.MULTi.CO...
Draculas.Haus.1945.German.Du...
Das.Siebente.Siegel.German.A...
Draculas.Sohn.1943.German.Du...
Meine.teuflisch.gute.Freundi...
No.Mans.Land.The.Rise.of.Ree...
MacLintock.1963.Authentic.Co...
23.-.Nichts.ist.so.wie.es.sc...
Berlin.Station.S03.GERMAN.DL...
Berlin.Station.S03.GERMAN.72...
Crazy.Rich.Asians.2018.Germa...
Meg.2018.German.DL.2160p.UHD...
Dogs.of.Berlin.S01.COMPLETE....
Shameless.US.S08.COMPLETE.Ge...
Wrecked.S03.COMPLETE.GERMAN....
A.Scanner.Darkly.Der.dunkle....
Paratrooper.GERMAN.1988.DL.1...
Supergirl.S03.COMPLETE.Germa...
iZombie.S04.German.DD51.Dubb...
iZombie.S04.German.DD51.Dubb...
The.Christmas.Chronicles.201...
The.Untold.Story.1993.German...
Swordbrothers.2011.German.10...

 
 
The.Forbidden.Kingdom.2008.German.DTS.DL.1080p.BluRay.x264-SoW

Jahr: 2008
Genre: Action, Fantasy
Sprache: Deutsch DTS | Englisch DTS
Laufzeit: 1h 44mn
Bitrate: 11.0 Mbps
Format: MKV
Größe: 8.05 GiB
Release:

Beschreibung:

Der 14-jähriger Jason aus Boston landet mit Hilfe eines antiken Kampfstabes im alten China. Dort rettet ihn der betrunkene Lu Yan vor den Soldaten des Jade-Kriegsherrn. Der will verhindern, dass Jason dem versteinerten Affenkönig seinen Kampfstab zurückbringt und damit erlöst. Bei seiner Odyssee zum Schloss des Jade-Kriegsherrn wird Jason auch von einem stummen Mönch und der verwaisten Rächerin Goldener Spatz begleitet.



Complete name                            : sow-the.forbidden.kingdom.1080p.mkv
Format                                   : Matroska
Format version                           : Version 2
File size                                : 8.05 GiB
Duration                                 : 1h 44mn
Overall bit rate                         : 11.0 Mbps
Encoded date                             : UTC 2009-08-01 04:58:02
Writing application                      : mkvmerge v2.9.0 ('Moanin'') built on May 22 2009 17:46:31
Writing library                          : libebml v0.7.7 + libmatroska v0.8.1

Video
ID                                       : 1
Format                                   : AVC
Format/Info                              : Advanced Video Codec
Format profile                           : High@L4.1
Format settings, CABAC                   : Yes
Format settings, ReFrames                : 5 frames
Codec ID                                 : V_MPEG4/ISO/AVC
Duration                                 : 1h 44mn
Bit rate                                 : 7 801 Kbps
Width                                    : 1 920 pixels
Height                                   : 800 pixels
Display aspect ratio                     : 2.40:1
Frame rate mode                          : Constant
Frame rate                               : 23.976 fps
Color space                              : YUV
Chroma subsampling                       : 4:2:0
Bit depth                                : 8 bits
Scan type                                : Progressive
Bits/(Pixel*Frame)                       : 0.212
Stream size                              : 5.69 GiB (71%)
Writing library                          : x264 core 68 r1183M f21daff
Encoding settings                        : cabac=1 / ref=5 / deblock=1:0:0 / analyse=0x3:0x113 / me=umh / subme=7 / psy_rd=1.0:0.0 / mixed_ref=1 / me_range=16 / chroma_me=1 / trellis=1 / 8x8dct=1 / cqm=0 / deadzone=21,11 / chroma_qp_offset=-2 / threads=6 / nr=0 / decimate=1 / mbaff=0 / bframes=3 / b_pyramid=1 / b_adapt=1 / b_bias=0 / direct=1 / wpredb=1 / keyint=250 / keyint_min=25 / scenecut=40 / rc=crf / crf=22.0 / qcomp=0.60 / qpmin=10 / qpmax=51 / qpstep=4 / ip_ratio=1.40 / pb_ratio=1.30 / aq=1:1.00
Language                                 : German
Default                                  : Yes
Forced                                   : No

Audio #1
ID                                       : 2
Format                                   : DTS
Format/Info                              : Digital Theater Systems
Mode                                     : 16
Format settings, Endianness              : Big
Codec ID                                 : A_DTS
Duration                                 : 1h 44mn
Bit rate mode                            : Constant
Bit rate                                 : 1 509 Kbps
Channel(s)                               : 6 channels
Channel positions                        : Front: L C R, Side: L R, LFE
Sampling rate                            : 48.0 KHz
Bit depth                                : 16 bits
Compression mode                         : Lossy
Stream size                              : 1.10 GiB (14%)
Title                                    : dts(1536)
Language                                 : German
Default                                  : Yes
Forced                                   : No

Audio #2
ID                                       : 3
Format                                   : DTS
Format/Info                              : Digital Theater Systems
Mode                                     : 16
Format settings, Endianness              : Big
Codec ID                                 : A_DTS
Duration                                 : 1h 44mn
Bit rate mode                            : Constant
Bit rate                                 : 1 509 Kbps
Channel(s)                               : 6 channels
Channel positions                        : Front: L C R, Side: L R, LFE
Sampling rate                            : 48.0 KHz
Bit depth                                : 16 bits
Compression mode                         : Lossy
Stream size                              : 1.10 GiB (14%)
Title                                    : dts(1536)
Language                                 : English
Default                                  : No
Forced                                   : No

Text #1
ID                                       : 4
Format                                   : UTF-8
Codec ID                                 : S_TEXT/UTF8
Codec ID/Info                            : UTF-8 Plain Text
Title                                    : normal
Language                                 : German
Default                                  : No
Forced                                   : No

Text #2
ID                                       : 5
Format                                   : UTF-8
Codec ID                                 : S_TEXT/UTF8
Codec ID/Info                            : UTF-8 Plain Text
Title                                    : forced
Language                                 : German
Default                                  : Yes
Forced                                   : No


Download:
Share Online Share OnlineShare OnlineShare Online
 

Kommentare