Filecrypt zeigt vereinzelt Files als "n/a". Die Downloads sind trotzdem komplett.

DNS SERVER AENDERNum der staatlichen Zensur zu umgehen. Sollten wir von eurem Provider geseprrt werden, nutzt den TOR BROWSER oder ändert euren DNS SERVER.

Filmwünsche können bei uns im Forum abgegeben werden

Wir Speichern Nicht




 
 
 
Top Releases
Final.Take-Off.Einsame.Entsc...
Passengers.2016.German.AC3.D...
Wolfsnaechte.2018.German.AC3...
Brawl.in.Cell.Block.99.2017....
Gravity.Diamond.Luxe.Edition...
Middle.School.The.Worst.Year...
Brawl.in.Cell.Block.99.2017....
Mindhorn.2016.German.AC3.DL....
Die.letzte.Party.deines.Lebe...
Sand.Castle.2017.German.AC3....

Cinedubs
Bad.Spies.2018.German.AC3MD....
Bad.Spies.2018.German.AC3MD....
MEG.Biss.bald.2018.German.AC...
Slender.Man.2018.GERMAN.DL.A...
Slender.Man.2018.GERMAN.DL.A...
MEG.Biss.bald.2018.German.AC...
MEG.Biss.bald.2018.German.AC...
Searching.2018.German.AC3MD....
Searching.2018.German.AC3MD....
211.Cops.Under.Fire.2018.Ger...

Neuerscheinungen 2017-18
The.Big.Lebowski.1998.MULTi....
The.Fast.And.The.Furious.Tok...
2.Fast.2.Furious.2003.MULTi....
The.Watcher.Willkommen.im.Mo...
Vielmachglas.2018.German.AC3...
The.First.Purge.2018.German....
Am.Anfang.war.das.Feuer.La.g...
Uncle.Drew.2018.German.AC3.D...
Uncle.Drew.2018.German.AC3.D...
Wildes.Herz.2017.MULTi.COMPL...

XXX
BrownBunnies.18.10.05.Demi.S...
MistressT.18.01.02.Virgin.Hu...
ImmoralLive.18.10.04.Georgie...
Spizoo.18.10.01.Krissy.Lynn....
ExxxtraSmall.18.10.04.Demi.S...
Nubiles.18.10.02.Cristin.Bro...
POVLife.18.10.01.Addison.Lee...
MistressT.17.09.01.Sissy.Tra...
HerLimit.18.10.05.Ashley.Woo...
ATKGirlfriends.18.10.03.Arie...
HornyDoctor.18.10.05.Aria.Ro...
SweetheartVideo.18.10.01.Abi...
Cum4K.18.10.02.Mia.Collins.C...
PrivateSociety.18.10.02.Gang...
GermanGooGirls.18.10.02.Dais...
HarmonyVision.18.10.04.Lady....
Pantyhosed4U.18.10.03.Amber....
FamilyStrokes.18.10.04.Esper...
GapeLand.18.10.02.Lilit.Swee...
WankItNow.17.11.16.Kellie.Ob...

3D
Detective.Dee.und.die.Legend...
Detective.Dee.und.die.Legend...
Skyscraper.3D.German.DL.AC3....
Ant-Man.and.the.Wasp.2018.3D...
Jurassic.World.Das.gefallene...
Jurassic.World.Das.gefallene...
Best.of.3D.vol.10.-.12.GERMA...
Die.Biene.Maja.2.Die.Honigsp...
Sharknado.6.The.Last.One.3D....
Solo.A.Star.Wars.Story.3D.20...
Solo.A.Star.Wars.Story.3D.20...
Die.Biene.Maja.2.Die.Honigsp...
Avengers.Infinity.War.3D.201...
Avengers.Infinity.War.3D.201...
Rampage.Big.Meets.Bigger.3D....

Old_Stuff
Species.IV.Das.Erwachen.2007...
Species.IV.Das.Erwachen.2007...
Hotel.Transsilvanien.2012.Ge...
The.Dead.2010.German.DL.1080...
The.Dead.2.India.2013.German...
Britney.Spears.Live.The.Femm...
Buffy.The.Vampire.Slayer.199...
IMAX.Ride.Around.The.World.2...
Schimanski.-.Duisburg.Ruhror...
Akte.X.S02.German.DTS.DL.108...
How.I.Met.Your.Mother.S02.Ge...
Akte.X.S01.German.DTS.DL.108...
Den.Himmel.gibts.echt.DL.108...
Vikings.S02.German.DL.1080p....
Be.Kind.Rewind.Abgedreht.200...

Filme
Die.letzte.Front.Defenders.o...
The.Blacklist.S05D01-6.MULTi...
Der.Schakal.1997.German.DTS....
Tetsuo.The.Iron.Man.1989.Ger...
Ein.Platz.im.Herzen.1984.Ger...
The.Blacklist.S05.COMPLETE.G...
Hawaii.2013.German.DL.2160p....
Supernatural.S13.DL.DD51.Dub...
Elevator.2011.German.DL.1080...
Supernatural.S13.DL.DD51.Dub...
Mr.Mercedes.S02.German.DD+51...
Mr.Mercedes.S02.German.DD+51...
Hoechster.Einsatz.in.Laredo....
The.Fast.and.the.Furious.200...
Rhapsodie.in.Blei.1985.1080p...
Loewengrube.1989.S01.S02.S03...
The.Asian.Connection.2016.GE...
Fantastic.Four.2015.German.D...
Tsotsi.2005.German.DL.1080p....
Knowing.2009.German.Dubbed.D...
Sherlock.Holmes.Spiel.im.Sch...
Excalibur.1981.COMPLETE.BLUR...
The.Originals.S05.GERMAN.720...
The.Magicians.S03.GERMAN.720...

 
 
The.Fire.Dragon.Chronicles.Dragon.Quest.2009.German.DTS.DL.1080p.BluRay.x264-SoW

Jahr: 2009
Genre: Action, Fantasy
Sprache: Deutsch DTS | Englisch DTS
Laufzeit: 1h 28mn
Bitrate: 10.8 Mbps
Format: MKV
Größe: 6.66 GiB
Release:

Beschreibung:

Im mittelalterlichen Märchenreich ächzen die Menschen unter den Attacken des bösen Zauberers Krill und seines titanischen Feuerdrachen. Ihre letzte Hoffnung ruht auf den schmalen Schultern des Jünglings Arkadi. Der interessiert sich zwar momentan noch mehr für Frauen, doch wurde ihm prophezeit, dereinst als Retter gegen Krill anzutreten. Zuvor aber muss er eine Ausbildung bei einem strengen Meister absolvieren und einige heilige Juwelen für ein mächtiges Amulett zusammen suchen. Dabei helfen ihm ein paar ebenso gewitzte wie wehrhafte Weggefährten.



Complete name                            : sow-fdcdq.1080p.mkv
Format                                   : Matroska
Format version                           : Version 2
File size                                : 6.66 GiB
Duration                                 : 1h 28mn
Overall bit rate                         : 10.8 Mbps
Encoded date                             : UTC 2010-07-04 14:47:30
Writing application                      : mkvmerge v4.1.0 ('Boiling Point') gebaut am Jul  1 2010 14:37:28
Writing library                          : libebml v1.0.0 + libmatroska v1.0.0

Video
ID                                       : 1
Format                                   : AVC
Format/Info                              : Advanced Video Codec
Format profile                           : High@L4.1
Format settings, CABAC                   : Yes
Format settings, ReFrames                : 4 frames
Codec ID                                 : V_MPEG4/ISO/AVC
Duration                                 : 1h 28mn
Bit rate                                 : 7 539 Kbps
Width                                    : 1 920 pixels
Height                                   : 1 080 pixels
Display aspect ratio                     : 16:9
Frame rate mode                          : Constant
Frame rate                               : 23.976 fps
Color space                              : YUV
Chroma subsampling                       : 4:2:0
Bit depth                                : 8 bits
Scan type                                : Progressive
Bits/(Pixel*Frame)                       : 0.152
Stream size                              : 4.66 GiB (70%)
Writing library                          : x264 core 98 r1649 c54c47d
Encoding settings                        : cabac=1 / ref=4 / deblock=1:0:0 / analyse=0x3:0x113 / me=umh / subme=7 / psy=1 / psy_rd=1.00:0.00 / mixed_ref=0 / me_range=16 / chroma_me=1 / trellis=1 / 8x8dct=1 / cqm=0 / deadzone=21,11 / fast_pskip=0 / chroma_qp_offset=-2 / threads=9 / sliced_threads=0 / nr=0 / decimate=1 / interlaced=0 / constrained_intra=0 / bframes=3 / b_pyramid=2 / b_adapt=1 / b_bias=0 / direct=1 / weightb=1 / weightp=2 / keyint=250 / keyint_min=25 / scenecut=40 / intra_refresh=0 / rc_lookahead=40 / rc=crf / mbtree=1 / crf=20.0 / qcomp=0.60 / qpmin=10 / qpmax=51 / qpstep=4 / ip_ratio=1.40 / aq=1:1.00
Language                                 : German
Default                                  : Yes
Forced                                   : No

Audio #1
ID                                       : 2
Format                                   : DTS
Format/Info                              : Digital Theater Systems
Mode                                     : 16
Format settings, Endianness              : Big
Muxing mode                              : Header stripping
Codec ID                                 : A_DTS
Duration                                 : 1h 28mn
Bit rate mode                            : Constant
Bit rate                                 : 1 509 Kbps
Channel(s)                               : 6 channels
Channel positions                        : Front: L C R, Side: L R, LFE
Sampling rate                            : 48.0 KHz
Bit depth                                : 16 bits
Compression mode                         : Lossy
Stream size                              : 955 MiB (14%)
Title                                    : dts(1536)
Language                                 : German
Default                                  : Yes
Forced                                   : No

Audio #2
ID                                       : 3
Format                                   : DTS
Format/Info                              : Digital Theater Systems
Mode                                     : 16
Format settings, Endianness              : Big
Muxing mode                              : Header stripping
Codec ID                                 : A_DTS
Duration                                 : 1h 28mn
Bit rate mode                            : Constant
Bit rate                                 : 1 509 Kbps
Channel(s)                               : 6 channels
Channel positions                        : Front: L C R, Side: L R, LFE
Sampling rate                            : 48.0 KHz
Bit depth                                : 16 bits
Compression mode                         : Lossy
Stream size                              : 955 MiB (14%)
Title                                    : dts(1536)
Language                                 : English
Default                                  : No
Forced                                   : No

Text
ID                                       : 4
Format                                   : UTF-8
Codec ID                                 : S_TEXT/UTF8
Codec ID/Info                            : UTF-8 Plain Text
Title                                    : normal
Language                                 : German
Default                                  : Yes
Forced                                   : No


Download:
Share Online Share OnlineShare OnlineShare Online
 

Kommentare